Movies - Other

21 Grams 2003 BluRay 1080p x264 AC3-5 1-PeN mkv

  • Download Faster
  • Download torrent
  • Direct Download
  • Rate this torrent +  |  -
21 Grams 2003 BluRay 1080p x264 AC3-5 1-PeN mkv

Download Anonymously! Get Protected Today And Get your 70% discount


Torrent info

Name:21 Grams 2003 BluRay 1080p x264 AC3-5 1-PeN mkv

Infohash: C278EDFA0768CED7549759B1D69118AAACA09DC0

Total Size: 4.37 GB

Seeds: 0

Leechers: 0

Stream: Watch Full Movie @ Movie4u

Last Updated: 2011-08-19 20:35:17 (Update Now)

Torrent added: 2011-08-19 21:35:17




Torrent Files List


21.Grams.2003.BluRay.1080p.x264.AC3-5.1-PeN.mkv (Size: 4.37 GB) (Files: 1)

 21.Grams.2003.BluRay.1080p.x264.AC3-5.1-PeN.mkv

4.37 GB
 

Announce URL:

Torrent description

F:\\Movies\\21.Grams.2003.BluRay.1080p.x264.AC3-5.1-PeN.mkv
General
Complete name : F:\\Movies\\21.Grams.2003.BluRay.1080p.x264.AC3-5.1-PeN.mkv
Format : Matroska
File size : 4.37 GiB
Duration : 2h 6mn
Overall bit rate : 4 965 Kbps
Movie name : 00000
Encoded date : UTC 2010-11-05 20:08:44
Writing application : mkvmerge v2.9.8 (Cest le bon) built on Aug 13 2009 12:49:06
Writing library : libebml v0.7.7 + libmatroska v0.8.1
Video #1
ID : 1
Format : AVC
Format/Info : Advanced Video Codec
Format profile : [email protected]
Format settings, CABAC : Yes
Format settings, ReFrames : 5 frames
Muxing mode : Container [email protected]
Codec ID : V_MPEG4/ISO/AVC
Duration : 2h 5mn
Bit rate : 4 482 Kbps
Nominal bit rate : 4 579 Kbps
Width : 1 920 pixels
Height : 1 040 pixels
Display aspect ratio : 16:9
Frame rate : 23.976 fps
Resolution : 24 bits
Colorimetry : 4:2:0
Scan type : Progressive
Bits/(Pixel*Frame) : 0.094
Stream size : 3.94 GiB (90%)
Writing library : x264 core 65
Encoding settings : cabac=1 / ref=5 / deblock=1:-2:-2 / analyse=0x3:0x133 / me=umh / subme=9 / psy_rd=1.0:1.0 / mixed_ref=1 / me_range=32 / chroma_me=1 / trellis=1 / 8x8dct=1 / cqm=0 / deadzone=21,11 / chroma_qp_offset=-4 / threads=3 / nr=0 / decimate=1 / mbaff=0 / bframes=6 / b_pyramid=1 / b_adapt=1 / b_bias=0 / direct=3 / wpredb=1 / keyint=240 / keyint_min=24 / scenecut=40(pre) / rc=2pass / bitrate=4579 / ratetol=1.0 / qcomp=0.60 / qpmin=10 / qpmax=51 / qpstep=4 / cplxblur=20.0 / qblur=0.5 / ip_ratio=1.40 / pb_ratio=1.30 / aq=1:1.00
Language : English
colour_primaries : BT.709-5, BT.1361, IEC 61966-2-4, SMPTE RP177
transfer_characteristics : BT.709-5, BT.1361
matrix_coefficients : BT.709-5, BT.1361, IEC 61966-2-4 709, SMPTE RP177
Audio #2
ID : 2
Format : AC-3
Format/Info : Audio Coding 3
Codec ID : A_AC3
Duration : 2h 6mn
Bit rate mode : Constant
Bit rate : 384 Kbps
Channel(s) : 6 channels
Channel positions : Front: L C R, Surround: L R, LFE
Sampling rate : 48.0 KHz
Stream size : 346 MiB (8%)
Title : MainForm
Language : English
Text #3
ID : 3
Format : UTF-8
Codec ID : S_TEXT/UTF8
Codec ID/Info : UTF-8 Plain Text
Language : English
Text #4
ID : 4
Format : UTF-8
Codec ID : S_TEXT/UTF8
Codec ID/Info : UTF-8 Plain Text
Language : Bulgarian

related torrents

Torrent name

health leech seeds Size
 


comments (0)

Main Menu


 

x
 Your IP: Location: ~ Hide your IP with a VPN when torrenting!   HIDE ME NOW!